<?xml version="1.0" standalone="no"?>
<!DOCTYPE svg PUBLIC "-//W3C//DTD SVG 1.1//EN" "http://www.w3.org/Graphics/SVG/1.1/DTD/svg11.dtd" >
<svg xmlns="http://www.w3.org/2000/svg">
<metadata></metadata>
<defs>
<font id="NovecentowideLightRegular" horiz-adv-x="1685" >
<font-face units-per-em="2048" ascent="1741" descent="-307" />
<missing-glyph horiz-adv-x="512" />
<glyph horiz-adv-x="0" />
<glyph horiz-adv-x="2048" />
<glyph unicode=" "  horiz-adv-x="512" />
<glyph unicode="&#x09;" horiz-adv-x="512" />
<glyph unicode="&#xa0;" horiz-adv-x="512" />
<glyph unicode="!" horiz-adv-x="491" d="M207 0v322h78v-322h-78zM207 481v953h78v-953h-78z" />
<glyph unicode="&#x22;" horiz-adv-x="720" d="M207 989v445h82v-445h-82zM432 989v445h82v-445h-82z" />
<glyph unicode="#" horiz-adv-x="1679" d="M63 418l33 63h269l258 504h-271l33 64h270l197 385h74l-197 -385h535l196 385h74l-197 -385h289l-33 -64h-288l-256 -504h286l-32 -63h-287l-213 -418h-76l213 418h-532l-213 -418h-76l213 418h-269zM440 481h533l258 504h-535z" />
<glyph unicode="$" horiz-adv-x="1200" d="M88 389l76 21q9 -155 126.5 -260t313.5 -105q192 0 309 92.5t117 237.5q0 38 -9 71.5t-22 59.5t-37.5 50.5t-45 41.5t-56 34.5t-60 27.5t-66 23.5t-64.5 19.5t-67 17.5t-62 16.5q-158 44 -226 76q-200 96 -200 279q0 158 123 258.5t317 109.5v158h74v-156 q180 -9 304 -111t152 -268l-75 -20q-23 150 -136.5 238t-277.5 88q-177 0 -289 -79.5t-112 -217.5q0 -30 9 -57.5t21 -48.5t37 -42t44 -35t56.5 -30t59 -24.5t66.5 -22t65 -19t68 -18.5q179 -47 262 -88q227 -112 227 -332q0 -170 -132.5 -283.5t-348.5 -120.5v-155h-74v157 q-204 13 -328.5 130t-138.5 286z" />
<glyph unicode="%" horiz-adv-x="1837" d="M33 1030q0 177 101.5 298.5t268.5 121.5q112 0 198 -57.5t130.5 -152.5t44.5 -210q0 -176 -102.5 -297t-270.5 -121q-167 0 -268.5 121t-101.5 297zM104 1030q0 -146 82.5 -248t216.5 -102q135 0 217 102t82 248q0 148 -82 250t-217 102q-134 0 -216.5 -102.5 t-82.5 -249.5zM406 0l954 1434h70l-951 -1434h-73zM1063 401q0 114 44 209t130 153t197 58q168 0 270 -122t102 -298q0 -177 -101.5 -297t-270.5 -120q-167 0 -269 120t-102 297zM1135 401q0 -146 82.5 -248t216.5 -102q135 0 217 102t82 248q0 148 -82 250.5t-217 102.5 q-134 0 -216.5 -103t-82.5 -250z" />
<glyph unicode="&#x26;" horiz-adv-x="1452" d="M98 389q0 156 94.5 248.5t231.5 107.5v3q-51 7 -100 30.5t-91.5 62t-69 99t-26.5 133.5q0 52 13 103t45.5 103.5t82 92.5t128.5 65t178 25q189 0 322 -106.5t167 -306.5l-76 -21q-71 363 -415 363q-84 0 -150.5 -22.5t-105.5 -56t-65 -78t-35 -84t-9 -77.5 q0 -127 101 -210t284 -83h793v-71h-273v-191q0 -270 -122.5 -408.5t-397.5 -138.5q-224 0 -364 115.5t-140 302.5zM176 387q0 -152 120 -247t306 -95q128 0 216 32t137.5 96t70.5 147.5t21 197.5v191h-445q-123 0 -216.5 -32.5t-151.5 -106.5t-58 -183z" />
<glyph unicode="'" horiz-adv-x="495" d="M207 989v445h82v-445h-82z" />
<glyph unicode="(" horiz-adv-x="702" d="M100 721q0 432 122.5 683t369.5 341l31 -72q-146 -52 -243 -165.5t-149.5 -310t-52.5 -476.5q0 -415 112 -644.5t333 -309.5l-31 -68q-247 89 -369.5 339.5t-122.5 682.5z" />
<glyph unicode=")" horiz-adv-x="706" d="M86 -233q146 53 242.5 166.5t149 310.5t52.5 477t-52.5 476.5t-149 310t-242.5 165.5l31 72q247 -90 369 -340.5t122 -683.5t-122 -683t-369 -339z" />
<glyph unicode="*" horiz-adv-x="1085" d="M207 1165l20 60l283 -92v301h65l-4 -301l287 92l21 -60l-287 -88l180 -248l-51 -36l-178 251l-176 -251l-52 36l179 248z" />
<glyph unicode="+" horiz-adv-x="1429" d="M238 692v72h438v426h80v-426h438v-72h-438v-434h-80v434h-438z" />
<glyph unicode="," horiz-adv-x="389" d="M100 -272q97 108 97 233l16 10h-16q-28 -3 -52 17.5t-24 54.5q0 33 23 52.5t55 19.5q31 0 52 -25.5t21 -66.5q0 -84 -36 -161t-86 -134h-50z" />
<glyph unicode="-" horiz-adv-x="1372" d="M207 692v72h958v-72h-958z" />
<glyph unicode="." horiz-adv-x="389" d="M123 43q0 30 21 51t51 21t50.5 -21t20.5 -51q0 -31 -21 -51.5t-50 -20.5q-30 0 -51 21t-21 51z" />
<glyph unicode="/" horiz-adv-x="919" d="M57 0l734 1434h73l-731 -1434h-76z" />
<glyph unicode="0" horiz-adv-x="1470" d="M98 717q0 118 26.5 227.5t80 203.5t128.5 164t178.5 110t223.5 40t223.5 -40t178.5 -110t128.5 -164t80 -203.5t26.5 -227.5q0 -148 -42.5 -281.5t-121.5 -237.5t-201.5 -165.5t-271.5 -61.5t-271.5 61.5t-201.5 165.5t-121.5 237.5t-42.5 281.5zM178 717 q0 -106 22.5 -204t68.5 -183t111 -148t156.5 -99t198.5 -36q108 0 199.5 36t156.5 99t111 148t68 183t22 204q0 133 -36 252.5t-103.5 213t-175.5 148.5t-242 55q-107 0 -198.5 -36t-156.5 -99t-111 -147.5t-68.5 -182.5t-22.5 -204z" />
<glyph unicode="1" horiz-adv-x="782" d="M98 1020l420 414h57v-1434h-79v1114q0 44 2 97t3.5 81.5t0.5 28.5h-2q-1 0 -21.5 -22.5t-47.5 -52t-38 -40.5l-241 -237z" />
<glyph unicode="2" horiz-adv-x="1136" d="M84 1090q56 192 189 282t323 90q206 0 337.5 -124.5t131.5 -315.5q0 -80 -23 -153t-55 -125.5t-84 -106.5t-93 -88t-98 -78q-26 -19 -38 -29q-74 -59 -202 -160t-195.5 -155t-67.5 -55l2 -2h5q5 1 14.5 1.5t22.5 1t32 1t39.5 1t48 1t55.5 0.5h635v-76h-969v63 q114 94 343.5 282t344.5 282q89 72 146 174t57 219q0 162 -110 265.5t-279 103.5q-171 0 -283 -82t-153 -238z" />
<glyph unicode="3" horiz-adv-x="1204" d="M98 385l72 21q22 -163 147 -262t304 -99q102 0 181 29.5t127 80.5t72.5 115.5t24.5 139.5q0 151 -110.5 226t-305.5 75h-127v71h129q400 0 400 312q0 38 -11.5 76.5t-40.5 78.5t-72 70.5t-113 50t-157 19.5q-336 0 -413 -324l-74 20q39 176 167 276.5t320 100.5 q101 0 183 -22.5t135.5 -58.5t89 -85t51 -99t15.5 -103q0 -147 -96 -242.5t-234 -101.5v-2q68 -4 129 -27.5t109.5 -65t77 -105t28.5 -140.5q0 -201 -136 -320t-349 -119q-201 0 -347.5 113t-175.5 301z" />
<glyph unicode="4" horiz-adv-x="1255" d="M98 412v53l813 969h58v-949h215v-73h-215v-412h-76v412h-795zM197 485l2 -2q1 0 110.5 1t157.5 1h426v537q0 36 0.5 71t1 63.5t1 54t1 44.5t1 33t0.5 22l1 7h-2q-1 0 -21.5 -27.5t-61.5 -80.5t-81 -101l-387 -457q-53 -62 -91 -103.5t-48 -51.5z" />
<glyph unicode="5" horiz-adv-x="1167" d="M84 383l74 20q31 -166 147.5 -262t298.5 -96q180 0 296 116.5t116 293.5t-116 293t-296 116q-87 0 -156.5 -20t-114.5 -54.5t-72.5 -69t-45.5 -75.5l-70 21l125 768h742v-76h-682l-51 -318q-12 -73 -26 -141t-22 -101l-8 -32l2 -2q40 63 143 116.5t236 53.5 q213 0 352.5 -135t139.5 -344t-139 -346.5t-351 -137.5q-211 0 -348.5 112.5t-173.5 299.5z" />
<glyph unicode="6" horiz-adv-x="1204" d="M98 465q0 123 39 227.5t131 225.5l394 516h92l-496 -650l2 -2q125 162 363 162q222 0 367 -136.5t145 -344.5q0 -213 -147 -352.5t-372 -139.5q-226 0 -372 140.5t-146 353.5zM178 465q0 -189 120.5 -304.5t317.5 -115.5q195 0 316.5 115.5t124.5 304.5 q3 182 -118.5 294.5t-322.5 112.5q-196 0 -317 -112.5t-121 -294.5z" />
<glyph unicode="7" horiz-adv-x="1114" d="M74 1358v76h983v-56l-774 -1378h-84l682 1212q19 35 42.5 72t37.5 56l14 20l-2 2h-12q-12 -1 -32 -1.5t-43.5 -1t-51 -1t-50.5 -0.5h-710z" />
<glyph unicode="8" horiz-adv-x="1253" d="M98 389q0 82 31.5 151t84.5 115t120.5 74t140.5 33v2q-29 1 -67.5 14t-82 40t-79.5 63.5t-60 91.5t-24 117q0 157 130 264.5t335 107.5t335 -107.5t130 -264.5q0 -62 -24 -117t-60 -91.5t-79.5 -63.5t-81.5 -40t-67 -14v-2q97 -7 180.5 -51.5t139 -129t55.5 -192.5 q0 -188 -145 -302t-383 -116q-239 2 -384 116t-145 302zM176 389q0 -160 120.5 -253.5t330.5 -94.5q209 1 329.5 94.5t120.5 253.5q0 155 -120 243.5t-330 88.5q-211 0 -331 -88.5t-120 -243.5zM236 1090q0 -131 109 -212t282 -79q172 2 280.5 82t108.5 209 q0 134 -108.5 218.5t-280.5 84.5t-281.5 -85t-109.5 -218z" />
<glyph unicode="9" horiz-adv-x="1218" d="M70 967q0 222 149 358.5t377 136.5q231 0 377.5 -130t146.5 -365q0 -139 -67.5 -273.5t-233.5 -328.5l-313 -365h-92l551 651l-2 2q-69 -80 -165 -123t-206 -43q-158 0 -278 64t-182 172.5t-62 243.5zM147 967q0 -104 37.5 -184.5t101.5 -128t142 -71.5t166 -24 q193 0 320.5 108t127.5 300q0 110 -36.5 193t-99.5 132t-141.5 73t-170.5 24q-88 0 -166 -25t-142 -74t-101.5 -132.5t-37.5 -190.5z" />
<glyph unicode=":" horiz-adv-x="389" d="M123 43q0 30 21 51t51 21t50.5 -21t20.5 -51q0 -31 -21 -51.5t-50 -20.5q-30 0 -51 21t-21 51zM123 698q0 30 21 51t51 21t50.5 -21t20.5 -51t-20.5 -50.5t-50.5 -20.5q-31 0 -51.5 20.5t-20.5 50.5z" />
<glyph unicode=";" horiz-adv-x="415" d="M123 -281q96 107 96 234l17 10h-17q-28 -3 -52 17.5t-24 54.5q0 32 23 51.5t55 19.5q31 0 52.5 -25.5t21.5 -66.5q0 -84 -36.5 -160.5t-86.5 -134.5h-49zM141 698q0 30 21 51t51 21t51 -21t21 -51t-21 -50.5t-51 -20.5q-31 0 -51.5 20.5t-20.5 50.5z" />
<glyph unicode="&#x3c;" horiz-adv-x="1429" d="M225 752l826 499h133l-824 -499l824 -500h-133z" />
<glyph unicode="=" horiz-adv-x="1429" d="M238 528v72h956v-72h-956zM238 856v72h956v-72h-956z" />
<glyph unicode="&#x3e;" horiz-adv-x="1429" d="M246 252l823 500l-823 499h133l825 -499l-825 -500h-133z" />
<glyph unicode="?" horiz-adv-x="1157" d="M98 1085q39 180 170 278.5t326 98.5q101 0 182 -22.5t133 -60t86.5 -88.5t49 -105t14.5 -113q0 -73 -28.5 -137t-72 -109.5t-109 -87.5t-124.5 -69t-133 -54v-135h-84v176q259 99 364 193t105 223q0 45 -10.5 86.5t-37.5 83.5t-69 73t-110.5 50.5t-155.5 19.5 q-182 0 -285 -82.5t-141 -238.5zM508 0v322h84v-322h-84z" />
<glyph unicode="@" horiz-adv-x="1619" d="M98 727q0 156 54 292.5t147.5 233.5t226 153t283.5 56q152 0 284.5 -56t226.5 -153t148 -233.5t54 -292.5q0 -177 -70.5 -289t-187.5 -112q-79 0 -131.5 49.5t-55.5 142.5l-2 2q-32 -86 -114.5 -140t-176.5 -54q-161 0 -265.5 109t-104.5 278q0 185 101.5 303.5 t268.5 118.5q68 0 125.5 -19.5t90 -46.5t50.5 -50.5t19 -35.5h2v111h66v-576q0 -59 37 -97t90 -38q89 0 142.5 95.5t53.5 248.5q0 193 -84.5 348t-233.5 242.5t-333 87.5t-332.5 -87.5t-232.5 -242.5t-84 -348q0 -192 83.5 -352t233 -253t332.5 -93q95 0 175 16t128 38.5 t81.5 45.5t49.5 39t17 16l51 -30q-10 -12 -22.5 -24.5t-57 -44t-96.5 -54.5t-139.5 -41.5t-186.5 -18.5q-201 0 -364.5 101t-255 274t-91.5 381zM483 713q1 -143 86 -231.5t215 -88.5t208.5 88.5t78.5 237.5v125q0 100 -82.5 161.5t-204.5 61.5q-137 0 -219 -97t-82 -257z " />
<glyph unicode="A" horiz-adv-x="1472" d="M57 0l645 1434h68l645 -1434h-84l-201 451h-788l-201 -451h-84zM375 522h723l-295 662q-13 29 -29.5 69.5t-26 63t-10.5 22.5h-2q-1 0 -10 -23t-25.5 -63t-29.5 -69z" />
<glyph unicode="B" horiz-adv-x="1310" d="M207 0v1434h495q182 0 293 -93t111 -247q0 -108 -83 -195.5t-183 -103.5v-2q54 -3 116.5 -30t119.5 -72.5t94.5 -117.5t37.5 -155q0 -191 -124 -304.5t-330 -113.5h-547zM285 72h471q159 0 264.5 92.5t105.5 247.5q0 144 -114 241t-273 97h-454v-678zM285 819h403 q149 0 243.5 80.5t94.5 192.5q0 124 -92 197t-246 73h-403v-543z" />
<glyph unicode="C" horiz-adv-x="1564" d="M98 717q0 159 58.5 298t158.5 237t237 154t290 56q208 0 380.5 -100t270.5 -272l-80 -21q-85 148 -236 232.5t-335 84.5q-138 0 -260 -48.5t-211.5 -135t-141 -212.5t-51.5 -273q0 -193 88.5 -347t240 -237.5t335.5 -83.5q193 0 351.5 96.5t242.5 262.5l77 -23 q-91 -192 -269.5 -303t-401.5 -111q-153 0 -290 56.5t-237 154t-158.5 237t-58.5 298.5z" />
<glyph unicode="D" horiz-adv-x="1638" d="M207 0v1434h592q152 0 288.5 -53.5t236 -147.5t158 -230t58.5 -294q0 -205 -98.5 -368.5t-263 -252t-361.5 -88.5h-610zM285 76h532q130 0 246.5 44.5t204.5 124t140 200t52 264.5q0 193 -89.5 342.5t-239 228t-332.5 78.5h-514v-1282z" />
<glyph unicode="E" horiz-adv-x="1253" d="M207 0v1434h913v-76h-835v-547h678v-74h-678v-661h848v-76h-926z" />
<glyph unicode="F" horiz-adv-x="1169" d="M207 0v1434h893v-76h-815v-586h657v-76h-657v-696h-78z" />
<glyph unicode="G" horiz-adv-x="1632" d="M98 717q0 159 58.5 298t158.5 237t237 154t290 56q223 -7 389.5 -105.5t261.5 -266.5l-80 -21q-85 148 -236 232.5t-335 84.5q-138 0 -260 -48.5t-211.5 -135t-141 -212.5t-51.5 -273q0 -193 88.5 -347.5t240 -238.5t335.5 -84q109 0 212 31.5t177.5 81t127.5 103.5 t77 106v268h-467v70h540v-711h-73v79t0.5 63t0.5 48v35.5t0.5 22.5t0.5 14v4h-2q-22 -31 -51 -62.5t-84 -75t-117.5 -75.5t-153 -55t-188.5 -23q-153 0 -290 56.5t-237 154t-158.5 237t-58.5 298.5z" />
<glyph unicode="H" horiz-adv-x="1478" d="M207 0v1434h78v-641h907v641h80v-1434h-80v717h-907v-717h-78z" />
<glyph unicode="I" horiz-adv-x="491" d="M207 0v1434h78v-1434h-78z" />
<glyph unicode="J" horiz-adv-x="1316" d="M33 342l80 20q45 -146 172.5 -231.5t292.5 -85.5q244 0 370.5 136.5t126.5 383.5v869h80v-861q0 -285 -148 -444.5t-429 -159.5q-198 0 -345 103t-200 270z" />
<glyph unicode="K" horiz-adv-x="1366" d="M207 0v1434h78v-459q0 -94 -1 -194.5t-1.5 -126t0.5 -44.5h2q1 0 46 46t113.5 115.5t106.5 107.5l555 555h98l-575 -576l639 -858h-94l-601 803l-288 -289v-514h-78z" />
<glyph unicode="L" horiz-adv-x="1140" d="M207 0v1434h78v-1358h815v-76h-893z" />
<glyph unicode="M" horiz-adv-x="1683" d="M207 0v1434h74l399 -693q58 -100 98 -174.5t51 -97.5l11 -23h2l12 23q11 23 51.5 97.5t98.5 174.5l399 693h74v-1434h-78v793q0 68 2 196.5t3.5 217.5t0.5 89h-2q-1 0 -15.5 -26t-46.5 -84t-59 -107l-420 -727h-41l-420 727q-28 50 -59 107t-45.5 83.5t-15.5 26.5h-2 q-1 0 0.5 -89t3.5 -217.5t2 -196.5v-793h-78z" />
<glyph unicode="N" horiz-adv-x="1531" d="M207 0v1434h74l802 -1080q48 -64 92.5 -124.5t59.5 -80.5t16 -20h2q1 0 -0.5 44.5t-3.5 131.5t-2 164v965h78v-1434h-74l-807 1087q-53 72 -94 130t-53.5 77t-13.5 19h-2q-1 0 0 -43.5t2.5 -132t1.5 -166.5v-971h-78z" />
<glyph unicode="O" d="M98 717q0 159 58.5 298t158.5 237t237 154t290 56t290 -56t237 -154t159 -237t59 -298q0 -212 -100 -383.5t-270.5 -267t-374.5 -95.5q-153 0 -290 56.5t-237 154t-158.5 237t-58.5 298.5zM178 717q0 -193 88.5 -347.5t240 -238.5t335.5 -84q110 0 211 31.5t183 91 t143 140.5t94.5 186t33.5 221q0 196 -89.5 350t-240.5 236.5t-335 82.5q-138 0 -260 -48.5t-211.5 -135t-141 -212.5t-51.5 -273z" />
<glyph unicode="P" horiz-adv-x="1171" d="M207 0v1434h385q243 0 380.5 -117.5t137.5 -323.5t-137.5 -323t-380.5 -117h-307v-553h-78zM285 627h307q211 0 324.5 97.5t113.5 268.5q0 176 -117 270.5t-321 94.5h-307v-731z" />
<glyph unicode="Q" d="M98 717q0 159 58.5 298t158.5 237t237 154t290 56t290 -56t237 -154t159 -237t59 -298q0 -154 -55 -289.5t-149.5 -233t-224 -156t-275.5 -65.5v-243h-82v243q-146 7 -275.5 65.5t-223.5 156t-149 233t-55 289.5zM178 717q0 -193 88.5 -347.5t240 -238.5t335.5 -84 q110 0 211 31.5t183 91t143 140.5t94.5 186t33.5 221q0 196 -89.5 350t-240.5 236.5t-335 82.5q-138 0 -260 -48.5t-211.5 -135t-141 -212.5t-51.5 -273z" />
<glyph unicode="R" horiz-adv-x="1259" d="M207 0v1434h385q243 0 380.5 -116t137.5 -319q0 -157 -84.5 -262t-239.5 -145l369 -592h-92l-354 578q-55 -9 -117 -9h-307v-569h-78zM285 639h307q210 0 324 97t114 263q0 174 -116.5 266.5t-321.5 92.5h-307v-719z" />
<glyph unicode="S" horiz-adv-x="1200" d="M88 389l76 21q9 -155 126.5 -260t313.5 -105q192 0 309 92.5t117 237.5q0 38 -9 71.5t-22 59.5t-37.5 50.5t-45 41.5t-56 34.5t-60 27.5t-66 23.5t-64.5 19.5t-67 17.5t-62 16.5q-158 44 -226 76q-200 96 -200 279q0 165 136 267.5t345 102.5q192 0 326 -102.5 t163 -276.5l-75 -20q-23 150 -136.5 238t-277.5 88q-177 0 -289 -79.5t-112 -217.5q0 -30 9 -57.5t21 -48.5t37 -42t44 -35t56.5 -30t59 -24.5t66.5 -22t65 -19t68 -18.5q179 -47 262 -88q227 -112 227 -332q0 -175 -140 -289.5t-366 -114.5q-225 0 -362.5 119t-153.5 299z " />
<glyph unicode="T" horiz-adv-x="1198" d="M57 1358v76h1084v-76h-502v-1358h-80v1358h-502z" />
<glyph unicode="U" horiz-adv-x="1454" d="M162 573v861h78v-869q0 -257 123 -388.5t364 -131.5q242 0 364.5 131.5t122.5 388.5v869h80v-861q0 -295 -144.5 -449.5t-422.5 -154.5q-279 0 -422 154t-143 450z" />
<glyph unicode="V" horiz-adv-x="1468" d="M57 1434h82l512 -1145q14 -31 34.5 -81t33.5 -83t14 -33h2q1 0 14 33t33.5 83t34.5 81l512 1145h84l-643 -1434h-70z" />
<glyph unicode="W" horiz-adv-x="1933" d="M59 1434h80l396 -1115q18 -51 33.5 -101.5t22 -72.5t7.5 -22h2q1 0 6 22.5t18.5 72t30.5 101.5l283 893h57l285 -893q16 -51 29.5 -101.5t19 -72.5t6.5 -22h2q1 0 7.5 22t22.5 73t32 101l397 1115h78l-508 -1434h-61l-250 801q-32 101 -53.5 177t-27.5 99l-5 23h-2 l-6 -24q-6 -23 -27.5 -99t-52.5 -176l-252 -801h-60z" />
<glyph unicode="X" horiz-adv-x="1347" d="M39 0l584 750l-531 684h98l388 -502q9 -13 33 -47t42 -60t19 -26h2q1 0 19.5 26t43 60.5t33.5 46.5l385 502h100l-530 -684l584 -750h-101l-444 571q-20 26 -42.5 58t-34.5 49.5t-13 17.5h-2q-1 0 -12.5 -17.5t-34 -49.5t-41.5 -58l-445 -571h-100z" />
<glyph unicode="Y" horiz-adv-x="1273" d="M39 1434h94l410 -510q15 -17 38.5 -47.5t39 -51t16.5 -20.5h2q1 0 16.5 20t40 51.5t37.5 47.5l408 510h94l-559 -695v-739h-78v739z" />
<glyph unicode="Z" horiz-adv-x="1390" d="M123 0v72l958 1183q16 20 40.5 45.5t40.5 41t16 16.5l-2 2h-4q-4 0 -10.5 -0.5t-16.5 -0.5h-24t-30.5 -0.5t-38 -0.5h-44.5h-865v76h1125v-72l-955 -1182q-24 -31 -48 -57t-35 -37l-11 -12l2 -2h9q8 1 23 1.5t34.5 1t46 1t53.5 0.5h881v-76h-1145z" />
<glyph unicode="[" horiz-adv-x="643" d="M207 -307v2060h358v-76h-274v-1908h274v-76h-358z" />
<glyph unicode="\" horiz-adv-x="919" d="M57 1434h74l733 -1434h-78z" />
<glyph unicode="]" horiz-adv-x="671" d="M106 -231h275v1908h-275v76h359v-2060h-359v76z" />
<glyph unicode="^" horiz-adv-x="1372" d="M207 977l479 481l479 -481l-51 -51l-428 436l-428 -436z" />
<glyph unicode="_" horiz-adv-x="1540" d="M207 0h1126v-61h-1126v61z" />
<glyph unicode="`" horiz-adv-x="614" d="M82 1737l35 61l413 -223l-30 -53z" />
<glyph unicode="a" horiz-adv-x="1472" d="M57 0l645 1434h68l645 -1434h-84l-201 451h-788l-201 -451h-84zM375 522h723l-295 662q-13 29 -29.5 69.5t-26 63t-10.5 22.5h-2q-1 0 -10 -23t-25.5 -63t-29.5 -69z" />
<glyph unicode="b" horiz-adv-x="1310" d="M207 0v1434h495q182 0 293 -93t111 -247q0 -108 -83 -195.5t-183 -103.5v-2q54 -3 116.5 -30t119.5 -72.5t94.5 -117.5t37.5 -155q0 -191 -124 -304.5t-330 -113.5h-547zM285 72h471q159 0 264.5 92.5t105.5 247.5q0 144 -114 241t-273 97h-454v-678zM285 819h403 q149 0 243.5 80.5t94.5 192.5q0 124 -92 197t-246 73h-403v-543z" />
<glyph unicode="c" horiz-adv-x="1564" d="M98 717q0 159 58.5 298t158.5 237t237 154t290 56q208 0 380.5 -100t270.5 -272l-80 -21q-85 148 -236 232.5t-335 84.5q-138 0 -260 -48.5t-211.5 -135t-141 -212.5t-51.5 -273q0 -193 88.5 -347t240 -237.5t335.5 -83.5q193 0 351.5 96.5t242.5 262.5l77 -23 q-91 -192 -269.5 -303t-401.5 -111q-153 0 -290 56.5t-237 154t-158.5 237t-58.5 298.5z" />
<glyph unicode="d" horiz-adv-x="1638" d="M207 0v1434h592q152 0 288.5 -53.5t236 -147.5t158 -230t58.5 -294q0 -205 -98.5 -368.5t-263 -252t-361.5 -88.5h-610zM285 76h532q130 0 246.5 44.5t204.5 124t140 200t52 264.5q0 193 -89.5 342.5t-239 228t-332.5 78.5h-514v-1282z" />
<glyph unicode="e" horiz-adv-x="1253" d="M207 0v1434h913v-76h-835v-547h678v-74h-678v-661h848v-76h-926z" />
<glyph unicode="f" horiz-adv-x="1169" d="M207 0v1434h893v-76h-815v-586h657v-76h-657v-696h-78z" />
<glyph unicode="g" horiz-adv-x="1632" d="M98 717q0 159 58.5 298t158.5 237t237 154t290 56q223 -7 389.5 -105.5t261.5 -266.5l-80 -21q-85 148 -236 232.5t-335 84.5q-138 0 -260 -48.5t-211.5 -135t-141 -212.5t-51.5 -273q0 -193 88.5 -347.5t240 -238.5t335.5 -84q109 0 212 31.5t177.5 81t127.5 103.5 t77 106v268h-467v70h540v-711h-73v79t0.5 63t0.5 48v35.5t0.5 22.5t0.5 14v4h-2q-22 -31 -51 -62.5t-84 -75t-117.5 -75.5t-153 -55t-188.5 -23q-153 0 -290 56.5t-237 154t-158.5 237t-58.5 298.5z" />
<glyph unicode="h" horiz-adv-x="1478" d="M207 0v1434h78v-641h907v641h80v-1434h-80v717h-907v-717h-78z" />
<glyph unicode="i" horiz-adv-x="491" d="M207 0v1434h78v-1434h-78z" />
<glyph unicode="j" horiz-adv-x="1316" d="M33 342l80 20q45 -146 172.5 -231.5t292.5 -85.5q244 0 370.5 136.5t126.5 383.5v869h80v-861q0 -285 -148 -444.5t-429 -159.5q-198 0 -345 103t-200 270z" />
<glyph unicode="k" horiz-adv-x="1366" d="M207 0v1434h78v-459q0 -94 -1 -194.5t-1.5 -126t0.5 -44.5h2q1 0 46 46t113.5 115.5t106.5 107.5l555 555h98l-575 -576l639 -858h-94l-601 803l-288 -289v-514h-78z" />
<glyph unicode="l" horiz-adv-x="1140" d="M207 0v1434h78v-1358h815v-76h-893z" />
<glyph unicode="m" horiz-adv-x="1683" d="M207 0v1434h74l399 -693q58 -100 98 -174.5t51 -97.5l11 -23h2l12 23q11 23 51.5 97.5t98.5 174.5l399 693h74v-1434h-78v793q0 68 2 196.5t3.5 217.5t0.5 89h-2q-1 0 -15.5 -26t-46.5 -84t-59 -107l-420 -727h-41l-420 727q-28 50 -59 107t-45.5 83.5t-15.5 26.5h-2 q-1 0 0.5 -89t3.5 -217.5t2 -196.5v-793h-78z" />
<glyph unicode="n" horiz-adv-x="1531" d="M207 0v1434h74l802 -1080q48 -64 92.5 -124.5t59.5 -80.5t16 -20h2q1 0 -0.5 44.5t-3.5 131.5t-2 164v965h78v-1434h-74l-807 1087q-53 72 -94 130t-53.5 77t-13.5 19h-2q-1 0 0 -43.5t2.5 -132t1.5 -166.5v-971h-78z" />
<glyph unicode="o" d="M98 717q0 159 58.5 298t158.5 237t237 154t290 56t290 -56t237 -154t159 -237t59 -298q0 -212 -100 -383.5t-270.5 -267t-374.5 -95.5q-153 0 -290 56.5t-237 154t-158.5 237t-58.5 298.5zM178 717q0 -193 88.5 -347.5t240 -238.5t335.5 -84q110 0 211 31.5t183 91 t143 140.5t94.5 186t33.5 221q0 196 -89.5 350t-240.5 236.5t-335 82.5q-138 0 -260 -48.5t-211.5 -135t-141 -212.5t-51.5 -273z" />
<glyph unicode="p" horiz-adv-x="1171" d="M207 0v1434h385q243 0 380.5 -117.5t137.5 -323.5t-137.5 -323t-380.5 -117h-307v-553h-78zM285 627h307q211 0 324.5 97.5t113.5 268.5q0 176 -117 270.5t-321 94.5h-307v-731z" />
<glyph unicode="q" d="M98 717q0 159 58.5 298t158.5 237t237 154t290 56t290 -56t237 -154t159 -237t59 -298q0 -154 -55 -289.5t-149.5 -233t-224 -156t-275.5 -65.5v-243h-82v243q-146 7 -275.5 65.5t-223.5 156t-149 233t-55 289.5zM178 717q0 -193 88.5 -347.5t240 -238.5t335.5 -84 q110 0 211 31.5t183 91t143 140.5t94.5 186t33.5 221q0 196 -89.5 350t-240.5 236.5t-335 82.5q-138 0 -260 -48.5t-211.5 -135t-141 -212.5t-51.5 -273z" />
<glyph unicode="r" horiz-adv-x="1259" d="M207 0v1434h385q243 0 380.5 -116t137.5 -319q0 -157 -84.5 -262t-239.5 -145l369 -592h-92l-354 578q-55 -9 -117 -9h-307v-569h-78zM285 639h307q210 0 324 97t114 263q0 174 -116.5 266.5t-321.5 92.5h-307v-719z" />
<glyph unicode="s" horiz-adv-x="1200" d="M88 389l76 21q9 -155 126.5 -260t313.5 -105q192 0 309 92.5t117 237.5q0 38 -9 71.5t-22 59.5t-37.5 50.5t-45 41.5t-56 34.5t-60 27.5t-66 23.5t-64.5 19.5t-67 17.5t-62 16.5q-158 44 -226 76q-200 96 -200 279q0 165 136 267.5t345 102.5q192 0 326 -102.5 t163 -276.5l-75 -20q-23 150 -136.5 238t-277.5 88q-177 0 -289 -79.5t-112 -217.5q0 -30 9 -57.5t21 -48.5t37 -42t44 -35t56.5 -30t59 -24.5t66.5 -22t65 -19t68 -18.5q179 -47 262 -88q227 -112 227 -332q0 -175 -140 -289.5t-366 -114.5q-225 0 -362.5 119t-153.5 299z " />
<glyph unicode="t" horiz-adv-x="1198" d="M57 1358v76h1084v-76h-502v-1358h-80v1358h-502z" />
<glyph unicode="u" horiz-adv-x="1454" d="M162 573v861h78v-869q0 -257 123 -388.5t364 -131.5q242 0 364.5 131.5t122.5 388.5v869h80v-861q0 -295 -144.5 -449.5t-422.5 -154.5q-279 0 -422 154t-143 450z" />
<glyph unicode="v" horiz-adv-x="1468" d="M57 1434h82l512 -1145q14 -31 34.5 -81t33.5 -83t14 -33h2q1 0 14 33t33.5 83t34.5 81l512 1145h84l-643 -1434h-70z" />
<glyph unicode="w" horiz-adv-x="1933" d="M59 1434h80l396 -1115q18 -51 33.5 -101.5t22 -72.5t7.5 -22h2q1 0 6 22.5t18.5 72t30.5 101.5l283 893h57l285 -893q16 -51 29.5 -101.5t19 -72.5t6.5 -22h2q1 0 7.5 22t22.5 73t32 101l397 1115h78l-508 -1434h-61l-250 801q-32 101 -53.5 177t-27.5 99l-5 23h-2 l-6 -24q-6 -23 -27.5 -99t-52.5 -176l-252 -801h-60z" />
<glyph unicode="x" horiz-adv-x="1347" d="M39 0l584 750l-531 684h98l388 -502q9 -13 33 -47t42 -60t19 -26h2q1 0 19.5 26t43 60.5t33.5 46.5l385 502h100l-530 -684l584 -750h-101l-444 571q-20 26 -42.5 58t-34.5 49.5t-13 17.5h-2q-1 0 -12.5 -17.5t-34 -49.5t-41.5 -58l-445 -571h-100z" />
<glyph unicode="y" horiz-adv-x="1273" d="M39 1434h94l410 -510q15 -17 38.5 -47.5t39 -51t16.5 -20.5h2q1 0 16.5 20t40 51.5t37.5 47.5l408 510h94l-559 -695v-739h-78v739z" />
<glyph unicode="z" horiz-adv-x="1390" d="M123 0v72l958 1183q16 20 40.5 45.5t40.5 41t16 16.5l-2 2h-4q-4 0 -10.5 -0.5t-16.5 -0.5h-24t-30.5 -0.5t-38 -0.5h-44.5h-865v76h1125v-72l-955 -1182q-24 -31 -48 -57t-35 -37l-11 -12l2 -2h9q8 1 23 1.5t34.5 1t46 1t53.5 0.5h881v-76h-1145z" />
<glyph unicode="{" horiz-adv-x="733" d="M207 721q5 2 14.5 6t32.5 25.5t41 53t32.5 92.5t14.5 138v285q0 120 25.5 205.5t73.5 134t110 70.5t143 22v-76q-274 0 -274 -334v-299q0 -248 -113 -323q10 -5 19 -12.5t28 -32t32 -57t23.5 -92t10.5 -132.5v-297q0 -334 274 -334v-75q-81 0 -143 22t-110 70.5 t-73.5 134t-25.5 205.5v285q0 77 -14 138t-33.5 92.5t-39.5 52.5t-34 27z" />
<glyph unicode="|" horiz-adv-x="485" d="M207 -152v1739h74v-1739h-74z" />
<glyph unicode="}" horiz-adv-x="733" d="M39 -236q274 0 274 334v297q0 73 10.5 132.5t23.5 92t32 57t28 32t19 12.5q-113 75 -113 323v299q0 334 -274 334v76q81 0 143 -22t110 -70.5t73.5 -134t25.5 -205.5v-285q0 -77 14 -138t33.5 -92.5t39.5 -52.5t34 -27l14 -5q-5 -2 -14.5 -6t-32.5 -25.5t-41 -53 t-32.5 -92.5t-14.5 -138v-285q0 -120 -25.5 -205.5t-73.5 -134t-110 -70.5t-143 -22v75z" />
<glyph unicode="~" horiz-adv-x="1429" d="M319 668q14 80 74.5 128t149.5 48q45 0 86 -17t72 -41t60.5 -48t62.5 -41t67 -17q64 0 105 36.5t46 92.5l72 -21q-12 -79 -71 -126.5t-148 -47.5q-53 0 -103.5 25.5t-84 55.5t-77.5 55.5t-85 25.5q-65 0 -105.5 -35.5t-48.5 -91.5z" />
<glyph unicode="&#xa1;" horiz-adv-x="491" d="M207 0v952h78v-952h-78zM207 1112v322h78v-322h-78z" />
<glyph unicode="&#xa2;" horiz-adv-x="1144" d="M98 721q0 215 140.5 363.5t345.5 160.5v217h69v-217q138 -7 251 -78.5t175 -187.5l-67 -21q-59 104 -162 162t-232 58q-193 0 -318.5 -126.5t-125.5 -330.5q0 -202 125.5 -327.5t318.5 -125.5q138 0 246.5 64t163.5 180l66 -20q-59 -130 -176 -209t-265 -86v-226h-67v224 q-206 12 -347 161t-141 365z" />
<glyph unicode="&#xa3;" horiz-adv-x="1349" d="M207 0v76q94 20 142 82.5t55 161.5t-5 235l-14 156h-160v71h154l-21 230q-17 192 96.5 318.5t303.5 131.5q74 2 140.5 -16.5t130 -59.5t113.5 -118.5t77 -184.5l-74 -20q-50 179 -149 255t-244 71q-154 -4 -243 -110t-75 -267l21 -230h530v-71h-524l14 -156 q21 -217 -12 -329.5t-121 -153.5l2 -2h14q14 1 39.5 1.5t59 1t76 1t87.5 1t97 1t100 0.5h434v-76h-1044z" />
<glyph unicode="&#xa4;" horiz-adv-x="1323" d="M98 207l158 160q-121 143 -121 333q0 207 141 361l-147 147l47 47l152 -149q146 123 334 123q189 0 335 -121l150 147l47 -47l-147 -147q67 -72 105 -165.5t38 -195.5q0 -189 -121 -335l156 -158l-47 -47l-156 155q-153 -143 -360 -143q-205 0 -361 143l-156 -155z M211 700q0 -189 131 -321.5t320 -132.5q190 0 321 132t131 322t-131 322.5t-321 132.5q-189 0 -320 -133t-131 -322z" />
<glyph unicode="&#xa5;" horiz-adv-x="1273" d="M39 1434h94l410 -510q15 -17 38.5 -47.5t39 -51t16.5 -20.5h2q1 0 16.5 20t40 51.5t37.5 47.5l408 510h94l-492 -611h357v-69h-412l-12 -15v-75h424v-70h-424v-594h-78v594h-408v70h408v75l-12 15h-396v69h340z" />
<glyph unicode="&#xa6;" horiz-adv-x="485" d="M207 -152v594h74v-594h-74zM207 1014v573h74v-573h-74z" />
<glyph unicode="&#xa7;" horiz-adv-x="1071" d="M88 274l70 19q11 -114 106 -187.5t268 -74.5q163 0 265 64t102 163q0 26 -7.5 49t-18.5 41t-31.5 35t-38 28.5t-47.5 24t-50.5 20t-56 17t-55 14t-56.5 13t-53 12.5q-155 35 -218 60q-167 69 -167 196q0 90 68 151.5t184 88.5q-91 31 -145.5 79t-54.5 127 q0 115 113 185.5t288 70.5q160 0 271 -71t134 -193l-75 -22q-15 101 -105.5 160t-224.5 59q-144 0 -235 -51t-91 -138q0 -28 12 -51t38.5 -41t51 -31t69.5 -25.5t72 -19t78 -17.5q16 -3 23 -5q166 -38 237 -70q171 -77 171 -223q0 -165 -223 -221q221 -84 221 -252 q0 -128 -124 -211.5t-323 -83.5q-195 0 -310.5 88.5t-131.5 222.5zM176 770q0 -44 30 -78t86.5 -56.5t109.5 -37t127 -30.5q5 -1 8.5 -1.5t7.5 -1.5q13 -3 127 -28q101 20 166 71.5t65 122.5q0 27 -7.5 51t-24.5 43t-34 34t-47 28.5t-51 22t-59 18.5t-58 15t-60.5 14 t-55.5 12q-24 6 -51 12q-39 -6 -75 -15.5t-74.5 -27t-66 -40t-45.5 -56t-18 -72.5z" />
<glyph unicode="&#xa8;" horiz-adv-x="761" d="M82 1638q0 30 21 51t53 21q30 0 51.5 -21t21.5 -51q0 -32 -21 -53.5t-52 -21.5q-32 0 -53 21.5t-21 53.5zM530 1638q0 29 21.5 50.5t52.5 21.5q32 0 53 -21t21 -51q0 -32 -21 -53.5t-53 -21.5q-31 0 -52.5 21.5t-21.5 53.5z" />
<glyph unicode="&#xa9;" d="M98 717q0 159 58.5 298t158.5 237t237 154t290 56t290 -56t237 -154t159 -237t59 -298q0 -212 -100 -383.5t-270.5 -267t-374.5 -95.5q-153 0 -290 56.5t-237 154t-158.5 237t-58.5 298.5zM170 717q0 -200 88.5 -355.5t241 -239t342.5 -83.5q189 0 342 83.5t242.5 239 t89.5 355.5q0 152 -52 280t-142.5 215t-214.5 135t-265 48q-142 0 -265.5 -48t-213.5 -135t-141.5 -215t-51.5 -280zM481 713q0 162 105 268t266 106q102 0 196 -56t134 -140l-62 -21q-35 67 -110.5 110.5t-157.5 43.5q-132 0 -218.5 -87.5t-86.5 -223.5t86 -223t219 -87 q88 0 166 49.5t112 125.5l64 -21q-38 -94 -136.5 -156.5t-205.5 -62.5q-161 0 -266 106.5t-105 268.5z" />
<glyph unicode="&#xaa;" horiz-adv-x="706" d="M41 563v66h625v-66h-625zM47 768l283 682h45l282 -682h-73l-76 186h-311l-78 -186h-72zM219 1012h266l-92 227q-9 22 -18.5 55.5t-14.5 55.5t-6 22h-2q-1 0 -6 -22t-14.5 -55.5t-18.5 -55.5z" />
<glyph unicode="&#xab;" horiz-adv-x="1497" d="M207 721l481 479l51 -49l-434 -430l434 -430l-51 -49zM758 721l481 479l51 -49l-434 -430l434 -430l-51 -49z" />
<glyph unicode="&#xad;" horiz-adv-x="1372" d="M207 692v72h958v-72h-958z" />
<glyph unicode="&#xae;" d="M98 717q0 159 58.5 298t158.5 237t237 154t290 56t290 -56t237 -154t159 -237t59 -298q0 -212 -100 -383.5t-270.5 -267t-374.5 -95.5q-153 0 -290 56.5t-237 154t-158.5 237t-58.5 298.5zM170 717q0 -200 88.5 -355.5t241 -239t342.5 -83.5q189 0 342 83.5t242.5 239 t89.5 355.5q0 152 -52 280t-142.5 215t-214.5 135t-265 48q-142 0 -265.5 -48t-213.5 -135t-141.5 -215t-51.5 -280zM627 340v754h221q128 0 201 -60.5t73 -167.5q0 -169 -164 -215l195 -311h-76l-186 299q-14 -2 -43 -2h-156v-297h-65zM692 698h156q107 0 158 41t51 127 q0 166 -209 166h-156v-334z" />
<glyph unicode="&#xaf;" horiz-adv-x="794" d="M78 1442v63h637v-63h-637z" />
<glyph unicode="&#xb0;" horiz-adv-x="555" d="M96 1409q0 75 52 127.5t128 52.5q74 0 129.5 -53t55.5 -127t-55.5 -128t-129.5 -54q-76 0 -128 53t-52 129zM152 1409q0 -51 36.5 -88t87.5 -37t89 37t38 88q0 52 -37.5 87.5t-89.5 35.5q-51 0 -87.5 -35.5t-36.5 -87.5z" />
<glyph unicode="&#xb1;" horiz-adv-x="1429" d="M238 -20v71h956v-71h-956zM238 692v72h438v426h80v-426h438v-72h-438v-422h-80v422h-438z" />
<glyph unicode="&#xb2;" horiz-adv-x="661" d="M41 1548q31 119 109 176.5t190 57.5q118 0 199.5 -75t81.5 -183q0 -141 -160 -271q-24 -18 -98 -75.5t-115 -87.5q-27 -22 -56 -40t-44 -26l-15 -8l2 -2q72 12 197 12h280v-65h-553v53l367 289q54 42 90.5 102t36.5 117q0 84 -62 139t-153 55q-99 0 -152 -44.5 t-80 -141.5z" />
<glyph unicode="&#xb3;" horiz-adv-x="659" d="M41 1200l68 14q3 -91 68 -147.5t163 -56.5q102 0 155.5 51.5t53.5 128.5q0 71 -59 115.5t-154 44.5h-86v57h86q94 0 150.5 46t56.5 118q0 55 -50 101t-155 46q-178 0 -217 -184l-64 20q17 102 93.5 165t187.5 63q137 0 204.5 -61.5t67.5 -149.5q0 -78 -55 -131.5 t-133 -59.5v-2q82 -6 138 -57t56 -131q0 -111 -78 -178.5t-198 -67.5q-118 0 -203.5 70.5t-95.5 185.5z" />
<glyph unicode="&#xb4;" horiz-adv-x="614" d="M82 1575l414 223l34 -61l-417 -215z" />
<glyph unicode="&#xb6;" horiz-adv-x="1146" d="M98 1092q0 161 111 251.5t309 90.5h422v-1434h-78v1358h-176v-1358h-78v750h-90q-198 0 -309 91t-111 251z" />
<glyph unicode="&#xb7;" horiz-adv-x="389" d="M123 698q0 30 21 51t51 21t50.5 -21t20.5 -51t-20.5 -50.5t-50.5 -20.5q-31 0 -51.5 20.5t-20.5 50.5z" />
<glyph unicode="&#xb8;" horiz-adv-x="464" d="M82 -444l24 57h72q63 0 102 31.5t39 83.5q0 54 -39 87t-102 33h-86l55 152h64l-37 -96q94 2 150.5 -46t56.5 -130q0 -77 -56 -124.5t-147 -47.5h-96z" />
<glyph unicode="&#xb9;" horiz-adv-x="411" d="M33 1526l246 239h47v-804h-70v532q0 15 1 39.5t2.5 49.5t3 47t2.5 37l1 15h-2q-1 0 -9.5 -12t-23 -30.5t-28.5 -32.5l-125 -123z" />
<glyph unicode="&#xba;" horiz-adv-x="755" d="M20 1106q0 154 104 256t253 102q150 0 254 -102t104 -256q0 -152 -104.5 -254t-253.5 -102t-253 102t-104 254zM43 563v66h672v-66h-672zM86 1106q0 -126 83 -208.5t208 -82.5q124 0 207.5 83t83.5 208q0 127 -83.5 210t-207.5 83q-125 0 -208 -83t-83 -210z" />
<glyph unicode="&#xbb;" horiz-adv-x="1497" d="M207 291l434 430l-434 430l51 49l481 -479l-481 -479zM760 291l434 430l-434 430l49 49l483 -479l-481 -479z" />
<glyph unicode="&#xbc;" horiz-adv-x="1308" d="M33 1194l246 240h47v-805h-70v532q0 15 1 39.5t2.5 49.5t3 47.5l2.5 37.5l1 15h-2q-1 0 -9.5 -12t-23 -31t-28.5 -33l-125 -123zM113 0l954 1434h70l-953 -1434h-71zM655 221v49l455 535h45v-520h113v-64h-113v-221h-68v221h-432zM727 285l2 -2h9.5t23.5 0.5t33.5 1 t43 0.5h48.5h200v202q0 27 0.5 53.5t1.5 47.5t2 40t2.5 33t2.5 24.5t2 16.5v5h-2q-1 0 -23.5 -32t-59.5 -81.5t-67 -83.5l-110 -125q-17 -21 -44.5 -45.5t-45.5 -39.5z" />
<glyph unicode="&#xbd;" horiz-adv-x="1398" d="M33 1194l246 240h47v-805h-70v532q0 15 1 39.5t2.5 49.5t3 47.5l2.5 37.5l1 15h-2q-1 0 -9.5 -12t-23 -31t-28.5 -33l-125 -123zM113 0l954 1434h70l-953 -1434h-71zM778 588q31 119 109 176t190 57q118 0 199.5 -75t81.5 -183q0 -140 -160 -270q-27 -20 -100 -77 t-113 -87q-27 -22 -56 -40t-44 -26l-15 -8l2 -2q78 13 197 13h281v-66h-553v53l366 289q54 42 90.5 102t36.5 117q0 84 -62 139.5t-153 55.5q-98 0 -151 -45t-80 -142z" />
<glyph unicode="&#xbe;" horiz-adv-x="1474" d="M41 868l68 15q3 -91 68 -148t163 -57q102 0 155.5 51.5t53.5 128.5q0 71 -59 115.5t-154 44.5h-86v57h86q94 0 150.5 46t56.5 118q0 55 -50 101t-155 46q-178 0 -217 -184l-64 21q17 102 93.5 164.5t187.5 62.5q137 0 204.5 -61.5t67.5 -149.5q0 -78 -54.5 -131 t-133.5 -59v-2q82 -6 138 -57.5t56 -131.5q0 -111 -78 -178.5t-198 -67.5q-118 0 -203.5 70.5t-95.5 185.5zM279 0l952 1434h72l-953 -1434h-71zM821 221v49l455 535h45v-520h113v-64h-113v-221h-68v221h-432zM893 285l2 -2h9.5t23.5 0.5t33.5 1t43 0.5h48.5h200v202 q0 27 0.5 53.5t1.5 47.5t2 40t2.5 33t2.5 24.5t2 16.5v5h-2q-1 0 -23.5 -32t-59.5 -81.5t-67 -83.5l-111 -125q-17 -21 -44 -45.5t-45 -39.5z" />
<glyph unicode="&#xbf;" horiz-adv-x="1157" d="M98 360q0 73 28.5 137t72 109.5t109 87.5t124.5 69t133 54v135h84v-176q-259 -99 -364 -193t-105 -223q0 -45 10.5 -86.5t37.5 -83.5t69 -73t110.5 -50.5t155.5 -19.5q347 0 426 322l70 -21q-39 -180 -170 -278.5t-326 -98.5q-101 0 -182 22.5t-133 60t-86.5 88.5 t-49 105t-14.5 113zM565 1112v322h84v-322h-84z" />
<glyph unicode="&#xc0;" horiz-adv-x="1472" d="M57 0l645 1434h68l645 -1434h-84l-201 451h-788l-201 -451h-84zM375 522h723l-295 662q-13 29 -29.5 69.5t-26 63t-10.5 22.5h-2q-1 0 -10 -23t-25.5 -63t-29.5 -69zM434 1737l35 61l414 -223l-31 -53z" />
<glyph unicode="&#xc1;" horiz-adv-x="1472" d="M57 0l645 1434h68l645 -1434h-84l-201 451h-788l-201 -451h-84zM375 522h723l-295 662q-13 29 -29.5 69.5t-26 63t-10.5 22.5h-2q-1 0 -10 -23t-25.5 -63t-29.5 -69zM565 1575l414 223l35 -61l-418 -215z" />
<glyph unicode="&#xc2;" horiz-adv-x="1472" d="M57 0l645 1434h68l645 -1434h-84l-201 451h-788l-201 -451h-84zM375 522h723l-295 662q-13 29 -29.5 69.5t-26 63t-10.5 22.5h-2q-1 0 -10 -23t-25.5 -63t-29.5 -69zM424 1583l311 264l312 -264l-48 -47l-264 225l-264 -225z" />
<glyph unicode="&#xc3;" horiz-adv-x="1472" d="M57 0l645 1434h68l645 -1434h-84l-201 451h-788l-201 -451h-84zM375 522h723l-295 662q-13 29 -29.5 69.5t-26 63t-10.5 22.5h-2q-1 0 -10 -23t-25.5 -63t-29.5 -69zM428 1581q0 69 50 114.5t126 45.5q39 0 77 -17.5t62.5 -39t55.5 -39t59 -17.5q44 0 74.5 29t32.5 72h69 q2 -69 -48 -114.5t-128 -45.5q-36 0 -72 17.5t-61 38.5t-58 38.5t-63 17.5q-46 0 -76 -28.5t-30 -71.5h-70z" />
<glyph unicode="&#xc4;" horiz-adv-x="1472" d="M57 0l645 1434h68l645 -1434h-84l-201 451h-788l-201 -451h-84zM375 522h723l-295 662q-13 29 -29.5 69.5t-26 63t-10.5 22.5h-2q-1 0 -10 -23t-25.5 -63t-29.5 -69zM434 1638q0 30 21 51t53 21q31 0 52.5 -21.5t21.5 -50.5q0 -32 -21.5 -53.5t-52.5 -21.5 q-32 0 -53 21.5t-21 53.5zM883 1638q0 30 21.5 51t51.5 21q32 0 53 -21t21 -51q0 -32 -21 -53.5t-53 -21.5q-31 0 -52 21.5t-21 53.5z" />
<glyph unicode="&#xc5;" horiz-adv-x="1472" d="M57 0l643 1430q-63 12 -104 62t-41 116q0 76 52.5 128t129.5 52q74 0 128.5 -52t54.5 -128q0 -65 -43 -115.5t-105 -62.5l643 -1430h-84l-201 451h-788l-201 -451h-84zM375 522h723l-295 662q-13 29 -29.5 69.5t-26 63t-10.5 22.5h-2q-1 0 -10 -23t-25.5 -63t-29.5 -69z M612 1608q0 -51 36.5 -88t88.5 -37q51 0 88 37t37 88q0 53 -36.5 88t-88.5 35q-53 0 -89 -35t-36 -88z" />
<glyph unicode="&#xc6;" horiz-adv-x="1992" d="M57 0l668 1434h1137v-76h-834v-547h680v-74h-680v-661h846v-76h-928v451h-596l-209 -451h-84zM385 522h561v836h-176q-1 0 -20 -42.5t-50 -112t-49 -107.5z" />
<glyph unicode="&#xc7;" horiz-adv-x="1564" d="M98 717q0 159 58.5 298t158.5 237t237 154t290 56q208 0 380.5 -100t270.5 -272l-80 -21q-85 148 -236 232.5t-335 84.5q-138 0 -260 -48.5t-211.5 -135t-141 -212.5t-51.5 -273q0 -193 88.5 -347t240 -237.5t335.5 -83.5q193 0 351.5 96.5t242.5 262.5l77 -23 q-91 -191 -268 -302t-399 -112l-27 -67q94 2 150.5 -46t56.5 -130q0 -77 -56 -124.5t-147 -47.5h-96l25 57h71q63 0 102.5 31.5t39.5 83.5q0 54 -39.5 87t-102.5 33h-86l45 125q-142 11 -268 71t-218 156.5t-145 231t-53 285.5z" />
<glyph unicode="&#xc8;" horiz-adv-x="1253" d="M207 0v1434h913v-76h-835v-547h678v-74h-678v-661h848v-76h-926zM360 1737l35 61l414 -223l-31 -53z" />
<glyph unicode="&#xc9;" horiz-adv-x="1253" d="M207 0v1434h913v-76h-835v-547h678v-74h-678v-661h848v-76h-926zM492 1575l413 223l35 -61l-418 -215z" />
<glyph unicode="&#xca;" horiz-adv-x="1253" d="M207 0v1434h913v-76h-835v-547h678v-74h-678v-661h848v-76h-926zM350 1583l312 264l311 -264l-47 -47l-264 225l-265 -225z" />
<glyph unicode="&#xcb;" horiz-adv-x="1253" d="M207 0v1434h913v-76h-835v-547h678v-74h-678v-661h848v-76h-926zM360 1638q0 30 21 51t53 21q31 0 52.5 -21.5t21.5 -50.5q0 -32 -21.5 -53.5t-52.5 -21.5q-32 0 -53 21.5t-21 53.5zM809 1638q0 29 21.5 50.5t52.5 21.5q32 0 52.5 -21t20.5 -51q0 -32 -20.5 -53.5 t-52.5 -21.5q-31 0 -52.5 21.5t-21.5 53.5z" />
<glyph unicode="&#xcc;" horiz-adv-x="491" d="M-57 1737l34 61l414 -223l-31 -53zM207 0v1434h78v-1434h-78z" />
<glyph unicode="&#xcd;" horiz-adv-x="491" d="M74 1575l413 223l35 -61l-418 -215zM207 0v1434h78v-1434h-78z" />
<glyph unicode="&#xce;" horiz-adv-x="491" d="M-68 1583l312 264l311 -264l-47 -47l-264 225l-264 -225zM207 0v1434h78v-1434h-78z" />
<glyph unicode="&#xcf;" horiz-adv-x="491" d="M-57 1638q0 30 20.5 51t52.5 21q31 0 52.5 -21.5t21.5 -50.5q0 -32 -21.5 -53.5t-52.5 -21.5q-32 0 -52.5 21.5t-20.5 53.5zM207 0v1434h78v-1434h-78zM391 1638q0 29 21.5 50.5t52.5 21.5q32 0 53 -21t21 -51q0 -32 -21 -53.5t-53 -21.5q-31 0 -52.5 21.5t-21.5 53.5z " />
<glyph unicode="&#xd0;" horiz-adv-x="1640" d="M98 696v74h109v664h592q152 0 288.5 -53.5t236 -147.5t158 -230t58.5 -294q0 -205 -98.5 -368.5t-263 -252t-361.5 -88.5h-610v696h-109zM285 76h532q130 0 246.5 44.5t204.5 124t140 200t52 264.5q0 193 -89.5 342.5t-239 228t-332.5 78.5h-514v-588h438v-74h-438v-620z " />
<glyph unicode="&#xd1;" horiz-adv-x="1531" d="M207 0v1434h74l802 -1080q48 -64 92.5 -124.5t59.5 -80.5t16 -20h2q1 0 -0.5 44.5t-3.5 131.5t-2 164v965h78v-1434h-74l-807 1087q-53 72 -94 130t-53.5 77t-13.5 19h-2q-1 0 0 -43.5t2.5 -132t1.5 -166.5v-971h-78zM461 1581q0 69 50 114.5t126 45.5q39 0 77 -17.5 t62.5 -39t55.5 -39t59 -17.5q44 0 74 29t32 72h70q2 -69 -48 -114.5t-128 -45.5q-35 0 -71.5 17.5t-61.5 38.5t-58 38.5t-63 17.5q-46 0 -76.5 -28.5t-30.5 -71.5h-69z" />
<glyph unicode="&#xd2;" d="M98 717q0 159 58.5 298t158.5 237t237 154t290 56t290 -56t237 -154t159 -237t59 -298q0 -212 -100 -383.5t-270.5 -267t-374.5 -95.5q-153 0 -290 56.5t-237 154t-158.5 237t-58.5 298.5zM178 717q0 -193 88.5 -347.5t240 -238.5t335.5 -84q110 0 211 31.5t183 91 t143 140.5t94.5 186t33.5 221q0 196 -89.5 350t-240.5 236.5t-335 82.5q-138 0 -260 -48.5t-211.5 -135t-141 -212.5t-51.5 -273zM549 1737l35 61l413 -223l-30 -53z" />
<glyph unicode="&#xd3;" d="M98 717q0 159 58.5 298t158.5 237t237 154t290 56t290 -56t237 -154t159 -237t59 -298q0 -212 -100 -383.5t-270.5 -267t-374.5 -95.5q-153 0 -290 56.5t-237 154t-158.5 237t-58.5 298.5zM178 717q0 -193 88.5 -347.5t240 -238.5t335.5 -84q110 0 211 31.5t183 91 t143 140.5t94.5 186t33.5 221q0 196 -89.5 350t-240.5 236.5t-335 82.5q-138 0 -260 -48.5t-211.5 -135t-141 -212.5t-51.5 -273zM680 1575l414 223l34 -61l-417 -215z" />
<glyph unicode="&#xd4;" d="M98 717q0 159 58.5 298t158.5 237t237 154t290 56t290 -56t237 -154t159 -237t59 -298q0 -212 -100 -383.5t-270.5 -267t-374.5 -95.5q-153 0 -290 56.5t-237 154t-158.5 237t-58.5 298.5zM178 717q0 -193 88.5 -347.5t240 -238.5t335.5 -84q110 0 211 31.5t183 91 t143 140.5t94.5 186t33.5 221q0 196 -89.5 350t-240.5 236.5t-335 82.5q-138 0 -260 -48.5t-211.5 -135t-141 -212.5t-51.5 -273zM539 1583l311 264l311 -264l-47 -47l-264 225l-264 -225z" />
<glyph unicode="&#xd5;" d="M98 717q0 159 58.5 298t158.5 237t237 154t290 56t290 -56t237 -154t159 -237t59 -298q0 -212 -100 -383.5t-270.5 -267t-374.5 -95.5q-153 0 -290 56.5t-237 154t-158.5 237t-58.5 298.5zM178 717q0 -193 88.5 -347.5t240 -238.5t335.5 -84q110 0 211 31.5t183 91 t143 140.5t94.5 186t33.5 221q0 196 -89.5 350t-240.5 236.5t-335 82.5q-138 0 -260 -48.5t-211.5 -135t-141 -212.5t-51.5 -273zM543 1581q0 69 50 114.5t126 45.5q39 0 77 -17.5t62.5 -39t55.5 -39t59 -17.5q44 0 74 29t32 72h70q2 -69 -48 -114.5t-128 -45.5 q-35 0 -71.5 17.5t-61.5 38.5t-58 38.5t-63 17.5q-46 0 -76.5 -28.5t-30.5 -71.5h-69z" />
<glyph unicode="&#xd6;" d="M98 717q0 159 58.5 298t158.5 237t237 154t290 56t290 -56t237 -154t159 -237t59 -298q0 -212 -100 -383.5t-270.5 -267t-374.5 -95.5q-153 0 -290 56.5t-237 154t-158.5 237t-58.5 298.5zM178 717q0 -193 88.5 -347.5t240 -238.5t335.5 -84q110 0 211 31.5t183 91 t143 140.5t94.5 186t33.5 221q0 196 -89.5 350t-240.5 236.5t-335 82.5q-138 0 -260 -48.5t-211.5 -135t-141 -212.5t-51.5 -273zM549 1638q0 30 21 51t53 21q31 0 52 -21t21 -51q0 -32 -21 -53.5t-52 -21.5q-32 0 -53 21.5t-21 53.5zM997 1638q0 29 21.5 50.5t52.5 21.5 q32 0 53 -21t21 -51q0 -32 -21 -53.5t-53 -21.5q-31 0 -52.5 21.5t-21.5 53.5z" />
<glyph unicode="&#xd7;" horiz-adv-x="1429" d="M338 416l326 325l-326 326l51 51l326 -323l325 323l52 -51l-324 -326l326 -325l-54 -51l-325 325l-326 -325z" />
<glyph unicode="&#xd8;" d="M98 717q0 159 58.5 298t158.5 237t237 154t290 56q238 0 428 -129l84 109l55 -41l-84 -111q123 -102 192.5 -250t69.5 -323q0 -212 -100 -383.5t-270.5 -267t-374.5 -95.5q-233 0 -422 125l-78 -102l-55 43l78 102q-126 102 -196.5 251t-70.5 327zM178 717 q0 -160 61.5 -293t170.5 -225l815 1075q-165 112 -383 112q-138 0 -260 -48.5t-211.5 -135t-141 -212.5t-51.5 -273zM465 158q163 -111 377 -111q110 0 211 31.5t183 91t143 140.5t94.5 186t33.5 221q0 159 -60 291.5t-167 222.5z" />
<glyph unicode="&#xd9;" horiz-adv-x="1454" d="M162 573v861h78v-869q0 -257 123 -388.5t364 -131.5q242 0 364.5 131.5t122.5 388.5v869h80v-861q0 -295 -144.5 -449.5t-422.5 -154.5q-279 0 -422 154t-143 450zM430 1737l35 61l414 -223l-31 -53z" />
<glyph unicode="&#xda;" horiz-adv-x="1454" d="M162 573v861h78v-869q0 -257 123 -388.5t364 -131.5q242 0 364.5 131.5t122.5 388.5v869h80v-861q0 -295 -144.5 -449.5t-422.5 -154.5q-279 0 -422 154t-143 450zM561 1575l414 223l35 -61l-418 -215z" />
<glyph unicode="&#xdb;" horiz-adv-x="1454" d="M162 573v861h78v-869q0 -257 123 -388.5t364 -131.5q242 0 364.5 131.5t122.5 388.5v869h80v-861q0 -295 -144.5 -449.5t-422.5 -154.5q-279 0 -422 154t-143 450zM420 1583l311 264l311 -264l-47 -47l-264 225l-264 -225z" />
<glyph unicode="&#xdc;" horiz-adv-x="1454" d="M162 573v861h78v-869q0 -257 123 -388.5t364 -131.5q242 0 364.5 131.5t122.5 388.5v869h80v-861q0 -295 -144.5 -449.5t-422.5 -154.5q-279 0 -422 154t-143 450zM430 1638q0 30 21 51t53 21q31 0 52.5 -21.5t21.5 -50.5q0 -32 -21.5 -53.5t-52.5 -21.5q-32 0 -53 21.5 t-21 53.5zM879 1638q0 30 21.5 51t51.5 21q32 0 53 -21t21 -51q0 -32 -21 -53.5t-53 -21.5q-31 0 -52 21.5t-21 53.5z" />
<glyph unicode="&#xdd;" horiz-adv-x="1273" d="M39 1434h94l410 -510q15 -17 38.5 -47.5t39 -51t16.5 -20.5h2q1 0 16.5 20t40 51.5t37.5 47.5l408 510h94l-559 -695v-739h-78v739zM465 1575l414 223l34 -61l-417 -215z" />
<glyph unicode="&#xde;" horiz-adv-x="1198" d="M207 0v1434h78v-275h362q198 0 323.5 -122t125.5 -314t-125.5 -314t-323.5 -122h-362v-287h-78zM285 362h362q163 0 266 100.5t103 260.5q0 161 -103 261.5t-266 98.5h-362v-721z" />
<glyph unicode="&#xdf;" horiz-adv-x="1515" d="M207 0v1434h1067l-262 -471q-13 -23 -36.5 -62t-40.5 -66t-17 -28l2 -2h16q222 1 351.5 -114t129.5 -302q0 -181 -129 -299.5t-330 -118.5q-157 0 -289 77t-194 208l76 23q56 -107 165 -171.5t242 -64.5q165 0 273 98t108 248q0 67 -24 128t-70 110t-120 78.5t-167 29.5 h-112v70l217 393q13 24 36.5 64t40.5 67.5t17 28.5l-2 2h-8q-8 0 -22.5 -0.5t-32.5 -1t-43.5 -0.5h-51.5h-712v-1358h-78z" />
<glyph unicode="&#xe0;" horiz-adv-x="1472" d="M57 0l645 1434h68l645 -1434h-84l-201 451h-788l-201 -451h-84zM375 522h723l-295 662q-13 29 -29.5 69.5t-26 63t-10.5 22.5h-2q-1 0 -10 -23t-25.5 -63t-29.5 -69zM434 1737l35 61l414 -223l-31 -53z" />
<glyph unicode="&#xe1;" horiz-adv-x="1472" d="M57 0l645 1434h68l645 -1434h-84l-201 451h-788l-201 -451h-84zM375 522h723l-295 662q-13 29 -29.5 69.5t-26 63t-10.5 22.5h-2q-1 0 -10 -23t-25.5 -63t-29.5 -69zM565 1575l414 223l35 -61l-418 -215z" />
<glyph unicode="&#xe2;" horiz-adv-x="1472" d="M57 0l645 1434h68l645 -1434h-84l-201 451h-788l-201 -451h-84zM375 522h723l-295 662q-13 29 -29.5 69.5t-26 63t-10.5 22.5h-2q-1 0 -10 -23t-25.5 -63t-29.5 -69zM424 1583l311 264l312 -264l-48 -47l-264 225l-264 -225z" />
<glyph unicode="&#xe3;" horiz-adv-x="1472" d="M57 0l645 1434h68l645 -1434h-84l-201 451h-788l-201 -451h-84zM375 522h723l-295 662q-13 29 -29.5 69.5t-26 63t-10.5 22.5h-2q-1 0 -10 -23t-25.5 -63t-29.5 -69zM428 1581q0 69 50 114.5t126 45.5q39 0 77 -17.5t62.5 -39t55.5 -39t59 -17.5q44 0 74.5 29t32.5 72h69 q2 -69 -48 -114.5t-128 -45.5q-36 0 -72 17.5t-61 38.5t-58 38.5t-63 17.5q-46 0 -76 -28.5t-30 -71.5h-70z" />
<glyph unicode="&#xe4;" horiz-adv-x="1472" d="M57 0l645 1434h68l645 -1434h-84l-201 451h-788l-201 -451h-84zM375 522h723l-295 662q-13 29 -29.5 69.5t-26 63t-10.5 22.5h-2q-1 0 -10 -23t-25.5 -63t-29.5 -69zM434 1638q0 30 21 51t53 21q31 0 52.5 -21.5t21.5 -50.5q0 -32 -21.5 -53.5t-52.5 -21.5 q-32 0 -53 21.5t-21 53.5zM883 1638q0 30 21.5 51t51.5 21q32 0 53 -21t21 -51q0 -32 -21 -53.5t-53 -21.5q-31 0 -52 21.5t-21 53.5z" />
<glyph unicode="&#xe5;" horiz-adv-x="1472" d="M57 0l643 1430q-63 12 -104 62t-41 116q0 76 52.5 128t129.5 52q74 0 128.5 -52t54.5 -128q0 -65 -43 -115.5t-105 -62.5l643 -1430h-84l-201 451h-788l-201 -451h-84zM375 522h723l-295 662q-13 29 -29.5 69.5t-26 63t-10.5 22.5h-2q-1 0 -10 -23t-25.5 -63t-29.5 -69z M612 1608q0 -51 36.5 -88t88.5 -37q51 0 88 37t37 88q0 53 -36.5 88t-88.5 35q-53 0 -89 -35t-36 -88z" />
<glyph unicode="&#xe6;" horiz-adv-x="1992" d="M57 0l668 1434h1137v-76h-834v-547h680v-74h-680v-661h846v-76h-928v451h-596l-209 -451h-84zM385 522h561v836h-176q-1 0 -20 -42.5t-50 -112t-49 -107.5z" />
<glyph unicode="&#xe7;" horiz-adv-x="1564" d="M98 717q0 159 58.5 298t158.5 237t237 154t290 56q208 0 380.5 -100t270.5 -272l-80 -21q-85 148 -236 232.5t-335 84.5q-138 0 -260 -48.5t-211.5 -135t-141 -212.5t-51.5 -273q0 -193 88.5 -347t240 -237.5t335.5 -83.5q193 0 351.5 96.5t242.5 262.5l77 -23 q-91 -191 -268 -302t-399 -112l-27 -67q94 2 150.5 -46t56.5 -130q0 -77 -56 -124.5t-147 -47.5h-96l25 57h71q63 0 102.5 31.5t39.5 83.5q0 54 -39.5 87t-102.5 33h-86l45 125q-142 11 -268 71t-218 156.5t-145 231t-53 285.5z" />
<glyph unicode="&#xe8;" horiz-adv-x="1253" d="M207 0v1434h913v-76h-835v-547h678v-74h-678v-661h848v-76h-926zM350 1737l35 61l414 -223l-31 -53z" />
<glyph unicode="&#xe9;" horiz-adv-x="1253" d="M207 0v1434h913v-76h-835v-547h678v-74h-678v-661h848v-76h-926zM481 1575l414 223l35 -61l-418 -215z" />
<glyph unicode="&#xea;" horiz-adv-x="1253" d="M207 0v1434h913v-76h-835v-547h678v-74h-678v-661h848v-76h-926zM340 1583l311 264l312 -264l-48 -47l-264 225l-264 -225z" />
<glyph unicode="&#xeb;" horiz-adv-x="1253" d="M207 0v1434h913v-76h-835v-547h678v-74h-678v-661h848v-76h-926zM350 1638q0 30 21 51t53 21q31 0 52.5 -21.5t21.5 -50.5q0 -32 -21.5 -53.5t-52.5 -21.5q-32 0 -53 21.5t-21 53.5zM799 1638q0 30 21.5 51t51.5 21q32 0 53 -21t21 -51q0 -32 -21 -53.5t-53 -21.5 q-31 0 -52 21.5t-21 53.5z" />
<glyph unicode="&#xec;" horiz-adv-x="491" d="M-55 1737l35 61l413 -223l-31 -53zM207 0v1434h78v-1434h-78z" />
<glyph unicode="&#xed;" horiz-adv-x="491" d="M76 1575l413 223l35 -61l-418 -215zM207 0v1434h78v-1434h-78z" />
<glyph unicode="&#xee;" horiz-adv-x="491" d="M-66 1583l312 264l311 -264l-47 -47l-264 225l-264 -225zM207 0v1434h78v-1434h-78z" />
<glyph unicode="&#xef;" horiz-adv-x="491" d="M-55 1638q0 30 20.5 51t52.5 21q31 0 52.5 -21.5t21.5 -50.5q0 -32 -21.5 -53.5t-52.5 -21.5q-32 0 -52.5 21.5t-20.5 53.5zM207 0v1434h78v-1434h-78zM393 1638q0 29 21.5 50.5t52.5 21.5q32 0 53 -21t21 -51q0 -32 -21 -53.5t-53 -21.5q-31 0 -52.5 21.5t-21.5 53.5z " />
<glyph unicode="&#xf0;" horiz-adv-x="1640" d="M98 696v74h109v664h592q152 0 288.5 -53.5t236 -147.5t158 -230t58.5 -294q0 -205 -98.5 -368.5t-263 -252t-361.5 -88.5h-610v696h-109zM285 76h532q130 0 246.5 44.5t204.5 124t140 200t52 264.5q0 193 -89.5 342.5t-239 228t-332.5 78.5h-514v-588h438v-74h-438v-620z " />
<glyph unicode="&#xf1;" horiz-adv-x="1531" d="M207 0v1434h74l802 -1080q48 -64 92.5 -124.5t59.5 -80.5t16 -20h2q1 0 -0.5 44.5t-3.5 131.5t-2 164v965h78v-1434h-74l-807 1087q-53 72 -94 130t-53.5 77t-13.5 19h-2q-1 0 0 -43.5t2.5 -132t1.5 -166.5v-971h-78zM461 1581q0 69 50 114.5t126 45.5q39 0 77 -17.5 t62.5 -39t55.5 -39t59 -17.5q44 0 74 29t32 72h70q2 -69 -48 -114.5t-128 -45.5q-35 0 -71.5 17.5t-61.5 38.5t-58 38.5t-63 17.5q-46 0 -76.5 -28.5t-30.5 -71.5h-69z" />
<glyph unicode="&#xf2;" d="M98 717q0 159 58.5 298t158.5 237t237 154t290 56t290 -56t237 -154t159 -237t59 -298q0 -212 -100 -383.5t-270.5 -267t-374.5 -95.5q-153 0 -290 56.5t-237 154t-158.5 237t-58.5 298.5zM178 717q0 -193 88.5 -347.5t240 -238.5t335.5 -84q110 0 211 31.5t183 91 t143 140.5t94.5 186t33.5 221q0 196 -89.5 350t-240.5 236.5t-335 82.5q-138 0 -260 -48.5t-211.5 -135t-141 -212.5t-51.5 -273zM545 1737l35 61l413 -223l-30 -53z" />
<glyph unicode="&#xf3;" d="M98 717q0 159 58.5 298t158.5 237t237 154t290 56t290 -56t237 -154t159 -237t59 -298q0 -212 -100 -383.5t-270.5 -267t-374.5 -95.5q-153 0 -290 56.5t-237 154t-158.5 237t-58.5 298.5zM178 717q0 -193 88.5 -347.5t240 -238.5t335.5 -84q110 0 211 31.5t183 91 t143 140.5t94.5 186t33.5 221q0 196 -89.5 350t-240.5 236.5t-335 82.5q-138 0 -260 -48.5t-211.5 -135t-141 -212.5t-51.5 -273zM676 1575l414 223l34 -61l-417 -215z" />
<glyph unicode="&#xf4;" d="M98 717q0 159 58.5 298t158.5 237t237 154t290 56t290 -56t237 -154t159 -237t59 -298q0 -212 -100 -383.5t-270.5 -267t-374.5 -95.5q-153 0 -290 56.5t-237 154t-158.5 237t-58.5 298.5zM178 717q0 -193 88.5 -347.5t240 -238.5t335.5 -84q110 0 211 31.5t183 91 t143 140.5t94.5 186t33.5 221q0 196 -89.5 350t-240.5 236.5t-335 82.5q-138 0 -260 -48.5t-211.5 -135t-141 -212.5t-51.5 -273zM535 1583l311 264l311 -264l-47 -47l-264 225l-264 -225z" />
<glyph unicode="&#xf5;" d="M98 717q0 159 58.5 298t158.5 237t237 154t290 56t290 -56t237 -154t159 -237t59 -298q0 -212 -100 -383.5t-270.5 -267t-374.5 -95.5q-153 0 -290 56.5t-237 154t-158.5 237t-58.5 298.5zM178 717q0 -193 88.5 -347.5t240 -238.5t335.5 -84q110 0 211 31.5t183 91 t143 140.5t94.5 186t33.5 221q0 196 -89.5 350t-240.5 236.5t-335 82.5q-138 0 -260 -48.5t-211.5 -135t-141 -212.5t-51.5 -273zM539 1581q0 69 50 114.5t126 45.5q39 0 77 -17.5t62.5 -39t55.5 -39t59 -17.5q44 0 74 29t32 72h70q2 -69 -48 -114.5t-128 -45.5 q-35 0 -71.5 17.5t-61.5 38.5t-58 38.5t-63 17.5q-46 0 -76.5 -28.5t-30.5 -71.5h-69z" />
<glyph unicode="&#xf6;" d="M98 717q0 159 58.5 298t158.5 237t237 154t290 56t290 -56t237 -154t159 -237t59 -298q0 -212 -100 -383.5t-270.5 -267t-374.5 -95.5q-153 0 -290 56.5t-237 154t-158.5 237t-58.5 298.5zM178 717q0 -193 88.5 -347.5t240 -238.5t335.5 -84q110 0 211 31.5t183 91 t143 140.5t94.5 186t33.5 221q0 196 -89.5 350t-240.5 236.5t-335 82.5q-138 0 -260 -48.5t-211.5 -135t-141 -212.5t-51.5 -273zM545 1638q0 30 20.5 51t52.5 21q31 0 52.5 -21.5t21.5 -50.5q0 -32 -21.5 -53.5t-52.5 -21.5q-32 0 -52.5 21.5t-20.5 53.5zM993 1638 q0 29 21.5 50.5t52.5 21.5q32 0 53 -21t21 -51q0 -32 -21 -53.5t-53 -21.5q-31 0 -52.5 21.5t-21.5 53.5z" />
<glyph unicode="&#xf7;" horiz-adv-x="1429" d="M225 692v72h957v-72h-957zM627 283q0 30 20.5 50.5t50.5 20.5t51 -21t21 -50q0 -30 -21 -51t-51 -21t-50.5 21t-20.5 51zM627 1184q0 30 20.5 50.5t50.5 20.5t51 -20.5t21 -50.5t-21 -51t-51 -21t-50.5 21t-20.5 51z" />
<glyph unicode="&#xf8;" d="M98 717q0 159 58.5 298t158.5 237t237 154t290 56q238 0 428 -129l84 109l55 -41l-84 -111q123 -102 192.5 -250t69.5 -323q0 -212 -100 -383.5t-270.5 -267t-374.5 -95.5q-233 0 -422 125l-78 -102l-55 43l78 102q-126 102 -196.5 251t-70.5 327zM178 717 q0 -160 61.5 -293t170.5 -225l815 1075q-165 112 -383 112q-138 0 -260 -48.5t-211.5 -135t-141 -212.5t-51.5 -273zM465 158q163 -111 377 -111q110 0 211 31.5t183 91t143 140.5t94.5 186t33.5 221q0 159 -60 291.5t-167 222.5z" />
<glyph unicode="&#xf9;" horiz-adv-x="1454" d="M162 573v861h78v-869q0 -257 123 -388.5t364 -131.5q242 0 364.5 131.5t122.5 388.5v869h80v-861q0 -295 -144.5 -449.5t-422.5 -154.5q-279 0 -422 154t-143 450zM430 1737l35 61l414 -223l-31 -53z" />
<glyph unicode="&#xfa;" horiz-adv-x="1454" d="M162 573v861h78v-869q0 -257 123 -388.5t364 -131.5q242 0 364.5 131.5t122.5 388.5v869h80v-861q0 -295 -144.5 -449.5t-422.5 -154.5q-279 0 -422 154t-143 450zM561 1575l414 223l35 -61l-418 -215z" />
<glyph unicode="&#xfb;" horiz-adv-x="1454" d="M162 573v861h78v-869q0 -257 123 -388.5t364 -131.5q242 0 364.5 131.5t122.5 388.5v869h80v-861q0 -295 -144.5 -449.5t-422.5 -154.5q-279 0 -422 154t-143 450zM420 1583l311 264l311 -264l-47 -47l-264 225l-264 -225z" />
<glyph unicode="&#xfc;" horiz-adv-x="1454" d="M162 573v861h78v-869q0 -257 123 -388.5t364 -131.5q242 0 364.5 131.5t122.5 388.5v869h80v-861q0 -295 -144.5 -449.5t-422.5 -154.5q-279 0 -422 154t-143 450zM430 1638q0 30 21 51t53 21q31 0 52.5 -21.5t21.5 -50.5q0 -32 -21.5 -53.5t-52.5 -21.5q-32 0 -53 21.5 t-21 53.5zM879 1638q0 30 21.5 51t51.5 21q32 0 53 -21t21 -51q0 -32 -21 -53.5t-53 -21.5q-31 0 -52 21.5t-21 53.5z" />
<glyph unicode="&#xfd;" horiz-adv-x="1273" d="M39 1434h94l410 -510q15 -17 38.5 -47.5t39 -51t16.5 -20.5h2q1 0 16.5 20t40 51.5t37.5 47.5l408 510h94l-559 -695v-739h-78v739zM465 1575l414 223l34 -61l-417 -215z" />
<glyph unicode="&#xfe;" horiz-adv-x="1198" d="M207 0v1434h78v-275h362q198 0 323.5 -122t125.5 -314t-125.5 -314t-323.5 -122h-362v-287h-78zM285 362h362q163 0 266 100.5t103 260.5q0 161 -103 261.5t-266 98.5h-362v-721z" />
<glyph unicode="&#xff;" horiz-adv-x="1273" d="M39 1434h94l410 -510q15 -17 38.5 -47.5t39 -51t16.5 -20.5h2q1 0 16.5 20t40 51.5t37.5 47.5l408 510h94l-559 -695v-739h-78v739zM334 1638q0 30 21 51t53 21q30 0 51.5 -21t21.5 -51q0 -32 -21 -53.5t-52 -21.5q-32 0 -53 21.5t-21 53.5zM782 1638q0 29 21.5 50.5 t52.5 21.5q32 0 53 -21t21 -51q0 -32 -21 -53.5t-53 -21.5q-31 0 -52.5 21.5t-21.5 53.5z" />
<glyph unicode="&#x152;" horiz-adv-x="1986" d="M98 717q0 212 94.5 378t259 256.5t369.5 90.5q66 0 121 -8h913v-76h-835v-547h678v-74h-678v-661h848v-76h-924q-55 -8 -123 -8q-205 0 -369.5 90.5t-259 256.5t-94.5 378zM178 717q0 -194 83.5 -342.5t229 -227.5t330.5 -79q69 0 121 14v1272q-56 12 -121 12 q-185 0 -330.5 -77.5t-229 -226t-83.5 -345.5z" />
<glyph unicode="&#x153;" horiz-adv-x="1986" d="M98 717q0 212 94.5 378t259 256.5t369.5 90.5q66 0 121 -8h913v-76h-835v-547h678v-74h-678v-661h848v-76h-924q-55 -8 -123 -8q-205 0 -369.5 90.5t-259 256.5t-94.5 378zM178 717q0 -194 83.5 -342.5t229 -227.5t330.5 -79q69 0 121 14v1272q-56 12 -121 12 q-185 0 -330.5 -77.5t-229 -226t-83.5 -345.5z" />
<glyph unicode="&#x178;" horiz-adv-x="1273" d="M39 1434h94l410 -510q15 -17 38.5 -47.5t39 -51t16.5 -20.5h2q1 0 16.5 20t40 51.5t37.5 47.5l408 510h94l-559 -695v-739h-78v739zM334 1638q0 30 21 51t53 21q30 0 51.5 -21t21.5 -51q0 -32 -21 -53.5t-52 -21.5q-32 0 -53 21.5t-21 53.5zM782 1638q0 29 21.5 50.5 t52.5 21.5q32 0 53 -21t21 -51q0 -32 -21 -53.5t-53 -21.5q-31 0 -52.5 21.5t-21.5 53.5z" />
<glyph unicode="&#x2c6;" horiz-adv-x="780" d="M78 1583l311 264l311 -264l-47 -47l-264 225l-264 -225z" />
<glyph unicode="&#x2dc;" horiz-adv-x="772" d="M82 1581q0 69 50 114.5t126 45.5q39 0 77 -17.5t62.5 -39t55.5 -39t59 -17.5q44 0 74 29t32 72h70q2 -69 -48 -114.5t-128 -45.5q-36 0 -72 17.5t-61 38.5t-58 38.5t-63 17.5q-46 0 -76 -28.5t-30 -71.5h-70z" />
<glyph unicode="&#x2000;" horiz-adv-x="923" />
<glyph unicode="&#x2001;" horiz-adv-x="1847" />
<glyph unicode="&#x2002;" horiz-adv-x="923" />
<glyph unicode="&#x2003;" horiz-adv-x="1847" />
<glyph unicode="&#x2004;" horiz-adv-x="615" />
<glyph unicode="&#x2005;" horiz-adv-x="461" />
<glyph unicode="&#x2006;" horiz-adv-x="307" />
<glyph unicode="&#x2007;" horiz-adv-x="307" />
<glyph unicode="&#x2008;" horiz-adv-x="230" />
<glyph unicode="&#x2009;" horiz-adv-x="369" />
<glyph unicode="&#x200a;" horiz-adv-x="102" />
<glyph unicode="&#x2010;" horiz-adv-x="1372" d="M207 692v72h958v-72h-958z" />
<glyph unicode="&#x2011;" horiz-adv-x="1372" d="M207 692v72h958v-72h-958z" />
<glyph unicode="&#x2012;" horiz-adv-x="1372" d="M207 692v72h958v-72h-958z" />
<glyph unicode="&#x2013;" horiz-adv-x="1243" d="M207 690v74h829v-74h-829z" />
<glyph unicode="&#x2014;" horiz-adv-x="2072" d="M207 690v74h1659v-74h-1659z" />
<glyph unicode="&#x2018;" horiz-adv-x="583" d="M207 1167q0 84 36.5 160.5t86.5 134.5h47q-94 -108 -94 -233l-17 -10h17q27 2 50 -18.5t23 -53.5t-21.5 -52.5t-53.5 -19.5q-31 0 -52.5 25.5t-21.5 66.5z" />
<glyph unicode="&#x2019;" horiz-adv-x="583" d="M207 1075q96 107 96 234l14 10h-14q-28 -3 -52 17t-24 55q0 33 22 52t54 19q31 0 52.5 -26.5t21.5 -65.5q0 -84 -36.5 -160.5t-86.5 -134.5h-47z" />
<glyph unicode="&#x201a;" horiz-adv-x="583" d="M207 -270q96 107 96 233l14 10h-14q-28 -3 -52 17t-24 55q0 33 22 52.5t54 19.5q31 0 52.5 -26.5t21.5 -65.5q0 -84 -36.5 -160.5t-86.5 -134.5h-47z" />
<glyph unicode="&#x201c;" horiz-adv-x="911" d="M207 1167q0 84 36.5 160.5t86.5 134.5h47q-94 -108 -94 -233l-17 -10h17q27 2 50 -18.5t23 -53.5t-21.5 -52.5t-53.5 -19.5q-31 0 -52.5 25.5t-21.5 66.5zM535 1167q0 84 36 161t86 134h48q-95 -114 -95 -233l-16 -10h16q28 2 52 -18.5t24 -53.5t-23 -52.5t-55 -19.5 q-31 0 -52 25.5t-21 66.5z" />
<glyph unicode="&#x201d;" horiz-adv-x="911" d="M207 1075q96 107 96 234l14 10h-14q-28 -3 -52 17t-24 55q0 33 22 52t54 19q31 0 52.5 -26.5t21.5 -65.5q0 -84 -36.5 -160.5t-86.5 -134.5h-47zM535 1075q96 107 96 234l14 10h-14q-28 -3 -52 17t-24 55q0 33 22.5 52t55.5 19q31 0 51.5 -26t20.5 -66q0 -84 -35.5 -161 t-85.5 -134h-49z" />
<glyph unicode="&#x201e;" horiz-adv-x="870" d="M207 -270q96 107 96 233l14 10h-14q-28 -3 -52 17t-24 55q0 33 22 52.5t54 19.5q31 0 52.5 -26.5t21.5 -65.5q0 -84 -36.5 -160.5t-86.5 -134.5h-47zM494 -270q96 107 96 233l14 10h-14q-28 -3 -52 17t-24 55q0 33 22 52.5t54 19.5q31 0 52.5 -26.5t21.5 -65.5 q0 -84 -36.5 -160.5t-86.5 -134.5h-47z" />
<glyph unicode="&#x2022;" horiz-adv-x="739" d="M207 727q0 67 47.5 114.5t114.5 47.5q69 0 116 -47t47 -115t-47 -115t-116 -47q-67 0 -114.5 47.5t-47.5 114.5z" />
<glyph unicode="&#x2026;" horiz-adv-x="1447" d="M123 29q0 26 17 42.5t42 16.5q26 0 43 -17t17 -42t-17.5 -41.5t-42.5 -16.5q-24 0 -41.5 17.5t-17.5 40.5zM655 29q0 26 17.5 42.5t42.5 16.5q26 0 42.5 -17t16.5 -42t-17 -41.5t-42 -16.5t-42.5 17.5t-17.5 40.5zM1208 29q0 26 17.5 42.5t42.5 16.5q26 0 42.5 -17 t16.5 -42t-17 -41.5t-42 -16.5t-42.5 17.5t-17.5 40.5z" />
<glyph unicode="&#x202f;" horiz-adv-x="369" />
<glyph unicode="&#x2039;" horiz-adv-x="946" d="M207 721l481 479l51 -49l-436 -430l436 -430l-51 -49z" />
<glyph unicode="&#x203a;" horiz-adv-x="946" d="M207 291l434 430l-434 430l51 49l481 -479l-481 -479z" />
<glyph unicode="&#x205f;" horiz-adv-x="461" />
<glyph unicode="&#x20ac;" horiz-adv-x="1638" d="M98 596v68h84q-2 18 -2 53q0 31 2 47h-84v67h90q40 276 245.5 451.5t486.5 175.5q207 0 379 -99.5t268 -271.5l-84 -22q-85 148 -233 231.5t-330 83.5q-252 0 -434 -150.5t-220 -398.5h678v-67h-684q-2 -16 -2 -47q0 -35 2 -53h684v-68h-676q39 -244 221 -393.5 t431 -149.5q194 0 350.5 96t238.5 261l78 -23q-90 -191 -267.5 -301.5t-399.5 -110.5q-184 0 -341 78t-260.5 220t-130.5 323h-90z" />
<glyph unicode="&#x2122;" horiz-adv-x="1605" d="M57 1370v64h570v-64h-252v-602h-66v602h-252zM760 768v666h63l201 -342q17 -29 30.5 -55.5t18.5 -38t6 -11.5h2q1 0 6.5 11t19.5 37t32 55l198 344h64v-666h-66v311q0 50 2.5 114.5t4.5 102t1 37.5h-2q-1 0 -7 -13.5t-21 -43t-33 -59.5l-178 -295h-43l-176 295 q-19 30 -34.5 59.5t-22 43t-7.5 13.5h-2q-1 0 1.5 -37.5t5.5 -102t3 -114.5v-311h-67z" />
</font>
</defs>
</svg>
